1
2
3
4
5
6
7
8
9
10
11
12
13
14
15
16
17
18
19
20
21
wodz@wodz-r61:~/Pobrane$ ffmpeg -i 14\ Come\ With\ Me.mp3 out.wav
FFmpeg version SVN-r0.5.1-4:0.5.1-1ubuntu1, Copyright (c) 2000-2009 Fabrice Bellard, et al.
  configuration: --extra-version=4:0.5.1-1ubuntu1 --prefix=/usr --enable-avfilter --enable-avfilter-lavf --enable-vdpau --enable-bzlib --enable-libgsm --enable-libschroedinger --enable-libspeex --enable-libtheora --enable-libvorbis --enable-pthreads --enable-zlib --disable-stripping --disable-vhook --enable-runtime-cpudetect --enable-gpl --enable-postproc --enable-swscale --enable-x11grab --enable-libdc1394 --enable-shared --disable-static
  libavutil     49.15. 0 / 49.15. 0
  libavcodec    52.20. 1 / 52.20. 1
  libavformat   52.31. 0 / 52.31. 0
  libavdevice   52. 1. 0 / 52. 1. 0
  libavfilter    0. 4. 0 /  0. 4. 0
  libswscale     0. 7. 1 /  0. 7. 1
  libpostproc   51. 2. 0 / 51. 2. 0
  built on Mar  4 2010 12:35:30, gcc: 4.4.3
Input #0, mp3, from '14 Come With Me.mp3':
  Duration: 00:05:01.17, start: 0.000000, bitrate: 320 kb/s
    Stream #0.0: Audio: mp3, 44100 Hz, stereo, s16, 320 kb/s
Output #0, wav, to 'out.wav':
    Stream #0.0: Audio: pcm_s16le, 44100 Hz, stereo, s16, 1411 kb/s
Stream mapping:
  Stream #0.0 -> #0.0
Press [q] to stop encoding
size=   51899kB time=301.27 bitrate=1411.2kbits/s    
video:0kB audio:51898kB global headers:0kB muxing overhead 0.000083%